Atlántica | Bad Teacher | Eps11 American Gangster - Season 3 (2008)My Cultivator Girlfriend | Dancing Ballz: Music Dance Line Tiles Game | Conexión peligrosa (2016)
 


 

DNS SERVER AENDERNum der staatlichen Zensur zu umgehen. Sollten wir von eurem Provider geseprrt werden, nutzt den TOR BROWSER oder ändert euren DNS SERVER.

Filmwünsche können bei uns im Forum abgegeben werden

Wir Speichern Nicht




 
 
 
Top Releases
Der.Engel.2018.German.DL.108...
Der.Engel.2018.German.DL.720...
Der.Buchladen.der.Florance.G...
Der.Buchladen.der.Florance.G...
Loving.Pablo.2017.German.AC3...
Solo.A.Star.Wars.Story.2018....
Solo.A.Star.Wars.Story.2018....
Das.Alibi.Spiel.der.Macht.20...
Loving.Pablo.2017.German.DL....
Life.2017.German.DL.1080p.Bl...

Cinedubs
Mission.Impossible.Fallout.G...
Mission.Impossible.Fallout.G...
Sicario.2.2018.German.AC3MD....
Sicario.2.2018.German.AC3MD....
The.Rider.2017.GERMAN.DL.AC3...
The.Rider.2017.GERMAN.DL.AC3...
Solo.A.Star.Wars.Story.2018....
Solo.A.Star.Wars.Story.2018....
Jurassic.World.2.Das.gefalle...
Ant-Man.and.the.Wasp.TS.LD.G...

Neuerscheinungen 2017-18
Land.der.Gewohnheiten.2018.G...
Land.der.Gewohnheiten.2018.G...
Four.Riders.1972.MULTi.COMPL...
Die.Schlange.im.Schatten.des...
I.Feel.Pretty.2018.MULTI.COM...
Blei.ist.sein.Lohn.Hands.of....
Die.Mafiosi.Braut.Married.to...
Time.Breaker.Get.Mean.1975.M...
Die.Biene.Maja.2.Die.Honigsp...
Die.Biene.Maja.2.Die.Honigsp...

XXX
MomsBangTeens.18.09.04.Karme...
MetArt.18.09.04.Cristin.Pant...
MetArtX.18.09.04.Alexis.Crys...
HuCows.18.09.01.Penny.Pocket...
Hustler.18.09.04.Brenna.Spar...
MilfHunter.18.09.03.Ariella....
GirlfriendsFilms.Women.Seeki...
MeloneChallenge.18.09.01.Wen...
GirlfriendsFilms.Twisted.Pas...
MyFriendsHotMom.18.09.03.Rea...
GiveMePink.18.09.04.Anita.Be...
KarupsHA.18.09.03.Katra.Coll...
MomKnowsBest.18.09.04.Kira.N...
HotGuysFuck.18.08.24.Ty.Jaso...
GrandpasFuckTeens.18.09.04.S...
InTheCrack.E1445.Kalina.Ryu....
JulesJordan.18.09.04.Ashley....
GirlfriendsFilms.Women.Seeki...
HuCows.18.08.25.Cindy.And.Ni...
HotGuysFuck.18.08.31.Ian.Bor...

3D
Die.Biene.Maja.2.Die.Honigsp...
Avengers.Infinity.War.3D.201...
Avengers.Infinity.War.3D.201...
Rampage.Big.Meets.Bigger.3D....
Rampage.Big.Meets.Bigger.3D....
Rampage.Big.Meets.Bigger.3D....
Winter.Games.3D.2013.DUAL.CO...
Tomb.Raider.3D.2018.German.7...
Rampage.Big.Meets.Bigger.3D....
Rampage.Big.Meets.Bigger.3D....
Tomb.Raider.3D.2018.MULTi.CO...
Pacific.Rim.Uprising.3D.2018...
Ready.Player.One.3D.2018.Ger...
Rampage.-.Big.Meets.Bigger.2...
Ready.Player.One.2018.3D.HOU...

Old_Stuff
How.I.Met.Your.Mother.S02.Ge...
Akte.X.S01.German.DTS.DL.108...
Den.Himmel.gibts.echt.DL.108...
Vikings.S02.German.DL.1080p....
Be.Kind.Rewind.Abgedreht.200...
Be.Kind.Rewind.Abgedreht.200...
Dracula.The.Dark.Lord.2012.G...
21.2008.German.DL.1080p.BluR...
Achtung.fertig.WK.Swissgerma...
The.Ouija.Exorcism.2015.MULT...
Meine.liebe.Rabenmutter.germ...
Da.Vincis.Demons.S01.Complet...
Eragon.Das.Vermaechtnis.der....
Adele.und.das.Geheimnis.des....
Die.fabelhafte.Welt.der.Amel...

Filme
Early.Man.Steinzeit.bereit.2...
BoJack.Horseman.S05.COMPLETE...
Krieg.und.Frieden.1967.Germa...
Wild.America.1997.German.AC3...
BoJack.Horseman.S05.COMPLETE...
Just.Friends.No.Sex.aka.Wild...
American.Vandal.S02.COMPLETE...
American.Vandal.S02.COMPLETE...
The.Flash.2014.S04.GERMAN.10...
Once.Upon.a.Time.S07.German....
Once.Upon.a.Time.S07.German....
Mr.Mercedes.S02.German.DD+51...
Mr.Mercedes.S02.German.DD+51...
What.Happened.to.Monday.2017...
Duma.Mein.Freund.aus.der.Wil...
Brake.2012.German.AC3.DL.108...
Die.grellen.Lichter.der.Gros...
Stand.by.Me.Das.Geheimnis.ei...
Premium.Rush.2012.German.AC3...
Death.Race.2.UNRATED.2010.Ge...
Abandon.Ein.moerderisches.Sp...
The.Handmaids.Tale.S02.Germa...
The.Handmaids.Tale.S02.Germa...
The.Last.Man.On.Earth.S04.Ge...

 
 
Land.der.Gewohnheiten.2018.German.DL.720p.WEB.x264.iNTERNAL-BiGiNT
Jahr: 2018
Genre: Komödie
Sprache: Deutsch AC3 | Englisch AC3
Laufzeit: 1h 38mn
Bitrate: 3 324 Kbps
Format: MKV
Größe: 2.28 GiB
Release:

Beschreibung:

Die meisten wollen, was sie gerade nicht haben (können). Das ist auch bei Anders Hill (Ben Mendelsohn) der Fall, der es sich in einer wohlhabenden Gegend in der Nähe von Connecticut gemütlich gemacht hat – fast schon zu gemütlich. Denn er fühlt sich in seinem festgefahrenen Leben gefangen. Nun scheint der Mittfünfziger allerdings endlich bereit zu sein, die Früchte seines bisher so vernünftigen Leben zu ernten: Der frisch in Rente gegangene Anders hat die Studiengebühren seines Sohnes Preston (Thomas Mann) abgezahlt und deshalb beschließt er, dass er nun erst einmal genug von seinen eingefahrenen Gewohnheiten hat. Kurzerhand verlässt er seine Frau Helene (Edie Falco), kauft sich eine Eigentumswohnung und macht in der Hoffnung, endlich wieder Lebenslust zu entwickeln, eine komplette Metamorphose durch. Ohne den Komfort seiner früheren Identität begibt sich Anders auf eine ungeschickte und herzzerreißende Reise, um seine Vergangenheit mit seiner Gegenwart zu versöhnen und stellt bald fest, dass sich so ein Leben voller Freiheit doch seltsam leer anfühlt.



Complete name                            : land.der.gewohnheiten.2018.german.dl.720p.web.x264.internal-bigint.mkv
Format                                   : Matroska
Format version                           : Version 4 / Version 2
File size                                : 2.28 GiB
Duration                                 : 1h 38mn
Overall bit rate mode                    : Variable
Overall bit rate                         : 3 324 Kbps
Encoded date                             : UTC 2018-09-14 09:39:09
Writing application                      : mkvmerge v22.0.0 ('At The End Of The World') 64-bit
Writing library                          : libebml v1.3.5 + libmatroska v1.4.8
DURATION                                 : 01:33:14.255000000
NUMBER_OF_FRAMES                         : 1391
NUMBER_OF_BYTES                          : 52563
_STATISTICS_WRITING_APP                  : mkvmerge v22.0.0 ('At The End Of The World') 64-bit
_STATISTICS_WRITING_DATE_UTC             : 2018-09-14 09:39:09
_STATISTICS_TAGS                         : BPS DURATION NUMBER_OF_FRAMES NUMBER_OF_BYTES

Video
ID                                       : 1
Format                                   : AVC
Format/Info                              : Advanced Video Codec
Format profile                           : [email protected]
Format settings, CABAC                   : Yes
Format settings, ReFrames                : 3 frames
Codec ID                                 : V_MPEG4/ISO/AVC
Duration                                 : 1h 38mn
Bit rate mode                            : Variable
Bit rate                                 : 2 050 Kbps
Maximum bit rate                         : 3 075 Kbps
Width                                    : 1 280 pixels
Height                                   : 720 pixels
Display aspect ratio                     : 16:9
Frame rate mode                          : Constant
Frame rate                               : 23.976 fps
Color space                              : YUV
Chroma subsampling                       : 4:2:0
Bit depth                                : 8 bits
Scan type                                : Progressive
Bits/(Pixel*Frame)                       : 0.093
Stream size                              : 1.36 GiB (60%)
Writing library                          : x264 core 148 r2715 7e75228
Encoding settings                        : cabac=1 / ref=3 / deblock=1:0:0 / analyse=0x1:0x111 / me=umh / subme=10 / psy=1 / psy_rd=1.00:0.00 / mixed_ref=1 / me_range=24 / chroma_me=1 / trellis=2 / 8x8dct=0 / cqm=0 / deadzone=21,11 / fast_pskip=1 / chroma_qp_offset=-2 / threads=8 / lookahead_threads=1 / sliced_threads=0 / nr=0 / decimate=1 / interlaced=0 / bluray_compat=0 / stitchable=1 / constrained_intra=0 / bframes=2 / b_pyramid=0 / b_adapt=2 / b_bias=0 / direct=3 / weightb=1 / open_gop=0 / weightp=2 / keyint=48 / keyint_min=25 / scenecut=0 / intra_refresh=0 / rc_lookahead=48 / rc=2pass / mbtree=1 / bitrate=2050 / ratetol=1.0 / qcomp=0.50 / qpmin=6 / qpmax=51 / qpstep=4 / cplxblur=20.0 / qblur=0.5 / vbv_maxrate=3075 / vbv_bufsize=4100 / nal_hrd=vbr / filler=0 / ip_ratio=1.40 / aq=1:1.00
Default                                  : Yes
Forced                                   : No

Audio #1
ID                                       : 2
Format                                   : E-AC-3
Format/Info                              : Audio Coding 3
Format settings, Endianness              : Big
Codec ID                                 : A_EAC3
Duration                                 : 1h 38mn
Bit rate mode                            : Constant
Bit rate                                 : 640 Kbps
Channel(s)                               : 6 channels
Channel positions                        : Front: L C R, Side: L R, LFE
Sampling rate                            : 48.0 KHz
Compression mode                         : Lossy
Stream size                              : 450 MiB (19%)
Language                                 : German
Default                                  : Yes
Forced                                   : No

Audio #2
ID                                       : 3
Format                                   : E-AC-3
Format/Info                              : Audio Coding 3
Format settings, Endianness              : Big
Codec ID                                 : A_EAC3
Duration                                 : 1h 38mn
Bit rate mode                            : Constant
Bit rate                                 : 640 Kbps
Channel(s)                               : 6 channels
Channel positions                        : Front: L C R, Side: L R, LFE
Sampling rate                            : 48.0 KHz
Compression mode                         : Lossy
Stream size                              : 450 MiB (19%)
Language                                 : English
Default                                  : No
Forced                                   : No

Text #1
ID                                       : 4
Format                                   : UTF-8
Codec ID                                 : S_TEXT/UTF8
Codec ID/Info                            : UTF-8 Plain Text
Title                                    : Forced
Language                                 : German
Default                                  : Yes
Forced                                   : Yes

Text #2
ID                                       : 5
Format                                   : UTF-8
Codec ID                                 : S_TEXT/UTF8
Codec ID/Info                            : UTF-8 Plain Text
Title                                    : Deutsch
Language                                 : German
Default                                  : No
Forced                                   : No

Text #3
ID                                       : 6
Format                                   : UTF-8
Codec ID                                 : S_TEXT/UTF8
Codec ID/Info                            : UTF-8 Plain Text
Title                                    : Englisch (CC)
Language                                 : English
Default                                  : No
Forced                                   : No


Download:
Share Online Share OnlineShare OnlineShare Online
 

Kommentare