Lost.S01.COMPLETE.720p.BluRay.German.DL.DTS.x264-SuBHD | MIDNIGHT BREED - BAND 1 - 15 | Globale Migration: Geschichte und Gegenwart, 2. AuflageBeing Mary Jane | No, thanks! Close the box. | 09.09.1802:24 Uhr Der SPIEGEL 37/2018 0 / 03.373 Hits VID P2P DDL 0 Kommentare
 


 

DNS SERVER AENDERNum der staatlichen Zensur zu umgehen. Sollten wir von eurem Provider geseprrt werden, nutzt den TOR BROWSER oder ändert euren DNS SERVER.

Filmwünsche können bei uns im Forum abgegeben werden

Wir Speichern Nicht




 
 
 
Top Releases
Loving.Pablo.2017.German.DL....
Life.2017.German.DL.1080p.Bl...
Loving.Pablo.2017.MULTi.COMP...
Loving.Pablo.2017.German.720...
Gutland.2017.German.1080p.WE...
Gutland.2017.German.720p.WEB...
Der.Bankier.des.Widerstands....
Der.Bankier.des.Widerstands....
Die.Warnung.2018.German.720p...
Die.Warnung.2018.German.1080...

Cinedubs
Sicario.2.2018.German.AC3MD....
Sicario.2.2018.German.AC3MD....
The.Rider.2017.GERMAN.DL.AC3...
The.Rider.2017.GERMAN.DL.AC3...
Solo.A.Star.Wars.Story.2018....
Solo.A.Star.Wars.Story.2018....
Jurassic.World.2.Das.gefalle...
Ant-Man.and.the.Wasp.TS.LD.G...
Skyscraper.2018.German.AC3LD...
Jurassic.World.2.Das.gefalle...

Neuerscheinungen 2017-18
Die.Haut.des.Wolfes.2018.Ger...
Die.Haut.des.Wolfes.2018.Ger...
Violet.Evergarden.Vol1.D1.20...
The.Hurricane.Heist.2018.MUL...
The.Hurricane.Heist.2018.Ger...
The.Hurricane.Heist.2018.Ger...
I.Feel.Pretty.2018.German.DL...
Brueder.2017.GERMAN.COMPLETE...
Arthur.und.Claire.2017.GERMA...
I.Feel.Pretty.2018.German.DT...

XXX
BurningAngel.18.09.04.Kendra...
DigitalPlayground.18.09.03.M...
DeepThroatSirens.18.09.03.Su...
ClubSeventeen.18.09.04.Lilia...
ClubSeventeen.15.11.24.Nessy...
AussieDoll.17.05.14.Leila.Ge...
DeepThroatSirens.18.08.29.Pr...
ClubSeventeen.15.11.13.Monik...
CreampieInAsia.18.08.31.Wan....
ATKHairy.18.09.01.Ivy.Adams....
AussieDoll.17.05.12.Leila.Se...
ClubSeventeen.15.11.30.Anton...
ATKHairy.18.09.02.Helen.Volg...
AussieDoll.17.05.06.Leila.Se...
DevilsFilm.18.09.04.Aaliyah....
DateSlam.18.09.03.Julia.Bubb...
DogHouseDigital.4.On.1.Gang....
ATKGirlfriends.18.09.04.Athe...
Cum4K.18.09.04.Kiara.Cole.Pu...
BumsBus.18.09.04.Gabi.Gold.G...

3D
Die.Biene.Maja.2.Die.Honigsp...
Avengers.Infinity.War.3D.201...
Avengers.Infinity.War.3D.201...
Rampage.Big.Meets.Bigger.3D....
Rampage.Big.Meets.Bigger.3D....
Rampage.Big.Meets.Bigger.3D....
Winter.Games.3D.2013.DUAL.CO...
Tomb.Raider.3D.2018.German.7...
Rampage.Big.Meets.Bigger.3D....
Rampage.Big.Meets.Bigger.3D....
Tomb.Raider.3D.2018.MULTi.CO...
Pacific.Rim.Uprising.3D.2018...
Ready.Player.One.3D.2018.Ger...
Rampage.-.Big.Meets.Bigger.2...
Ready.Player.One.2018.3D.HOU...

Old_Stuff
How.I.Met.Your.Mother.S02.Ge...
Akte.X.S01.German.DTS.DL.108...
Den.Himmel.gibts.echt.DL.108...
Vikings.S02.German.DL.1080p....
Be.Kind.Rewind.Abgedreht.200...
Be.Kind.Rewind.Abgedreht.200...
Dracula.The.Dark.Lord.2012.G...
21.2008.German.DL.1080p.BluR...
Achtung.fertig.WK.Swissgerma...
The.Ouija.Exorcism.2015.MULT...
Meine.liebe.Rabenmutter.germ...
Da.Vincis.Demons.S01.Complet...
Eragon.Das.Vermaechtnis.der....
Adele.und.das.Geheimnis.des....
Die.fabelhafte.Welt.der.Amel...

Filme
Die.Simpsons.S29.GERMAN.DUBB...
Elementary.S06.German.Dubbed...
Arrow.S06.GERMAN.DL.1080p.HD...
Arrow.S06.GERMAN.DL.720p.HDT...
Cypher.2002.German.DL.1080p....
Shocker.1989.German.DL.1080p...
Leise.weht.der.Wind.des.Tode...
Bad.Boys.II.2003.German.DL.2...
Getrennte.Betten.1963.German...
Schmelztiegel.des.Grauens.19...
Shooter.S03.GERMAN.DUBBED.DL...
Shooter.S03.GERMAN.DUBBED.DL...
Legends.of.Tomorrow.S03.GERM...
Die.Simpsons.S29.GERMAN.DUBB...
MacGyver.S02.German.HDTV.108...
MacGyver.S02.GERMAN.DUBBED.D...
The.Deuce.S02.GERMAN.DL.1080...
Better.Call.Saul.S04.German....
Better.Call.Saul.S04.German....
Better.Call.Saul.S04.German....
Papillon.1973.German.DL.1080...
Papillon.1973.German.720p.Bl...
Die.Strategie.der.Spinne.197...
Die.Strategie.der.Spinne.197...

 
 
Sicario.2.2018.German.AC3MD.DL.1080p.WEBRip.x264-PS
Jahr: 2018
Genre: Thriller, Action
Sprache: Deutsch AC3 | Englisch AC3
Laufzeit: 52s 898ms
Bitrate: 5 898 Kbps
Format: MKV
Größe: 37.2 MiB
Release:

Beschreibung:
Zwei Jahre nach ihrem letzten Einsatz sind FBI-Agent Matt Graver (Josh Brolin) und Auftragskiller Alejandro Gillick (Benicio Del Toro) erneut an der amerikanisch-mexikanischen Grenze unterwegs. Dort herrscht mittlerweile vollkommener Ausnahmezustand. Terroristen schleusen ihre Anhänger massenweise unbemerkt in die USA, wo diese blutige Anschläge verüben. Als ein Selbstmordattentäter in einem Kaufhaus zahlreiche Zivilisten ermordet, soll Alejandro einschreiten. Für Matt soll er einen Krieg zwischen den verschiedenen Drogenkartellen vom Zaun brechen. Um das zu erreichen, will er Isabela (Isabela Moner) entführen, die Tochter des Kartellbosses und Terroristenschleusers Carlos Reyes. Außerdem hat Alejandro noch eine private Rechnung mit Reyes offen, die er in der Gunst der Stunde begleichen will...
Video: 1920 x 800 @ 4,9 Mbps
Audio1: German AC3 2.0 @ 192 kbps (Mic)
Audio2: English E-AC3 5.1 @ 640 kbps
Subs: German Forced, English Full


Complete name                            : ps-sic2.web1080p-sample.mkv
Format                                   : Matroska
Format version                           : Version 4 / Version 2
File size                                : 37.2 MiB
Duration                                 : 52s 898ms
Overall bit rate                         : 5 898 Kbps
Encoded date                             : UTC 2018-09-12 18:17:23
Writing application                      : mkvmerge v8.3.0 ('Over the Horizon') 64bit
Writing library                          : libebml v1.3.1 + libmatroska v1.4.2
DURATION                                 : 00:00:51.617000000
NUMBER_OF_FRAMES                         : 10
NUMBER_OF_BYTES                          : 225
_STATISTICS_WRITING_APP                  : mkvmerge v8.3.0 ('Over the Horizon') 64bit
_STATISTICS_WRITING_DATE_UTC             : 2018-09-12 18:17:23
_STATISTICS_TAGS                         : BPS DURATION NUMBER_OF_FRAMES NUMBER_OF_BYTES

Video
ID                                       : 1
Format                                   : AVC
Format/Info                              : Advanced Video Codec
Format profile                           : [email protected]
Format settings, CABAC                   : Yes
Format settings, ReFrames                : 5 frames
Codec ID                                 : V_MPEG4/ISO/AVC
Duration                                 : 52s 886ms
Bit rate                                 : 4 949 Kbps
Width                                    : 1 920 pixels
Height                                   : 800 pixels
Display aspect ratio                     : 2.40:1
Frame rate mode                          : Constant
Frame rate                               : 23.976 fps
Color space                              : YUV
Chroma subsampling                       : 4:2:0
Bit depth                                : 8 bits
Scan type                                : Progressive
Bits/(Pixel*Frame)                       : 0.134
Stream size                              : 31.2 MiB (84%)
Language                                 : English
Default                                  : Yes
Forced                                   : No
DURATION                                 : 00:00:52.553000000
NUMBER_OF_FRAMES                         : 1260
NUMBER_OF_BYTES                          : 33514001
_STATISTICS_WRITING_APP                  : mkvmerge v8.3.0 ('Over the Horizon') 64bit
_STATISTICS_WRITING_DATE_UTC             : 2018-09-12 18:17:23
_STATISTICS_TAGS                         : BPS DURATION NUMBER_OF_FRAMES NUMBER_OF_BYTES

Audio #1
ID                                       : 2
Format                                   : AC-3
Format/Info                              : Audio Coding 3
Mode extension                           : CM (complete main)
Format settings, Endianness              : Big
Codec ID                                 : A_AC3
Duration                                 : 52s 898ms
Bit rate mode                            : Constant
Bit rate                                 : 192 Kbps
Channel(s)                               : 2 channels
Channel positions                        : Front: L R
Sampling rate                            : 48.0 KHz
Bit depth                                : 16 bits
Compression mode                         : Lossy
Delay relative to video                  : 28ms
Stream size                              : 1.21 MiB (3%)
Language                                 : German
Default                                  : Yes
Forced                                   : Yes

Audio #2
ID                                       : 3
Format                                   : E-AC-3
Format/Info                              : Audio Coding 3
Format settings, Endianness              : Big
Codec ID                                 : A_EAC3
Duration                                 : 52s 898ms
Bit rate mode                            : Constant
Bit rate                                 : 640 Kbps
Channel(s)                               : 6 channels
Channel positions                        : Front: L C R, Side: L R, LFE
Sampling rate                            : 48.0 KHz
Compression mode                         : Lossy
Delay relative to video                  : 28ms
Stream size                              : 4.04 MiB (11%)
Language                                 : English
Default                                  : No
Forced                                   : No

Text #1
ID                                       : 4
Format                                   : UTF-8
Codec ID                                 : S_TEXT/UTF8
Codec ID/Info                            : UTF-8 Plain Text
Language                                 : German
Default                                  : Yes
Forced                                   : Yes

Text #2
ID                                       : 5
Format                                   : UTF-8
Codec ID                                 : S_TEXT/UTF8
Codec ID/Info                            : UTF-8 Plain Text
Language                                 : English
Default                                  : No
Forced                                   : No


Download:
Share Online Share OnlineShare OnlineShare Online
 

Kommentare